IndexIndex  Trợ giúpTrợ giúp  Tìm kiếmTìm kiếm  Thành viênThành viên  Đăng kýĐăng ký  Đăng NhậpĐăng Nhập  
IDM 6.12 Build 23 Final
Windows 8 RTM MSDN/Technet
HT CPL Bonus Pack! 12.4.4
OneKey Ghost
Rambo Quadrilogy (1982 - 2008)
Batman Collection (1989-2008)
Tây Du Ký I + II

Share | 
 

 [Fshare] [MV] Dĩ Vãng Cuộc Tình - Quang Hà (720p MPEG-TS - thien8xhn)

Xem chủ đề cũ hơn Xem chủ đề mới hơn Go down 
Tác giảThông điệp
thien8x
Quản Trị Viên
Quản Trị Viên


Tên Thật : Hoàng Thiên
Giới tính : Nam
Capricorn Snake
Tổng số bài gửi : 1121
Điểm : 290406
Join date : 08/11/2009
Age : 26
Đến từ : Hà Nam

Bài gửiTiêu đề: [Fshare] [MV] Dĩ Vãng Cuộc Tình - Quang Hà (720p MPEG-TS - thien8xhn)   Thu 08 Mar 2012, 16:09



Trích dẫn :
General
ID : 1 (0x1)
Complete name : Di Vang Cuoc Tinh HD.m2t
Format : MPEG-TS
File size : 917 MiB
Duration : 6mn 30s
Overall bit rate mode : Constant
Overall bit rate : 19.7 Mbps

Video
ID : 4096 (0x1000)
Menu ID : 1 (0x1)
Format : MPEG Video
Commercial name : HDV 720p
Format version : Version 2
Format profile : Main@High 1440
Format settings, BVOP : Yes
Format settings, Matrix : Default
Format settings, GOP : M=3, N=15
Codec ID : 2
Duration : 6mn 30s
Bit rate : 18.3 Mbps
Width : 1 280 pixels
Height : 720 pixels
Display aspect ratio : 16:9
Frame rate : 29.970 fps
Color space : YUV
Chroma subsampling : 4:2:0
Bit depth : 8 bits
Scan type : Progressive
Compression mode : Lossy
Bits/(Pixel*Frame) : 0.663
Stream size : 856 MiB (93%)

Audio
ID : 4098 (0x1002)
Menu ID : 1 (0x1)
Format : MPEG Audio
Format version : Version 1
Format profile : Layer 2
Codec ID : 3
Duration : 6mn 30s
Bit rate mode : Constant
Bit rate : 320 Kbps
Channel(s) : 2 channels
Sampling rate : 48.0 KHz
Compression mode : Lossy
Stream size : 14.9 MiB (2%)


Downloads:
Trích dẫn :
Di Vang Cuoc Tinh HD.m2t - Fshare - Dịch vụ chia sẻ, lưu trữ dữ liệu miễn phí tốt nhất









Về Đầu Trang Go down
  http://www.hoangthienit.net
 

[Fshare] [MV] Dĩ Vãng Cuộc Tình - Quang Hà (720p MPEG-TS - thien8xhn)

Xem chủ đề cũ hơn Xem chủ đề mới hơn Về Đầu Trang 

 Similar topics

+
Trang 1 trong tổng số 1 trang

Permissions in this forum:Bạn không có quyền trả lời bài viết
Hoàng Thiên ™ :: Music :: V-POP-
Chuyển đến 


Powered by phpBB2 © phpBB Group
Copyright © 2009 - 2012 , Hoàng Thiên ™ All rights reserved.

Forumotion.com | © phpBB | Free forum support | Liên hệ | Report an abuse | Create a blog