IndexIndex  Trợ giúpTrợ giúp  Tìm kiếmTìm kiếm  Thành viênThành viên  Đăng kýĐăng ký  Đăng NhậpĐăng Nhập  
IDM 6.12 Build 23 Final
Windows 8 RTM MSDN/Technet
HT CPL Bonus Pack! 12.4.4
OneKey Ghost
Rambo Quadrilogy (1982 - 2008)
Batman Collection (1989-2008)
Tây Du Ký I + II

Share | 
 

 [Phiêu lưu | Hành động | 1 Link] Neverland.2011.720p.BluRay.x264.DTS-HDChina - Miền Đất Hứa

Xem chủ đề cũ hơn Xem chủ đề mới hơn Go down 
Tác giảThông điệp
thien8x
Quản Trị Viên
Quản Trị Viên


Tên Thật : Hoàng Thiên
Giới tính : Nam
Capricorn Snake
Tổng số bài gửi : 1121
Điểm : 290403
Join date : 08/11/2009
Age : 26
Đến từ : Hà Nam

Bài gửiTiêu đề: [Phiêu lưu | Hành động | 1 Link] Neverland.2011.720p.BluRay.x264.DTS-HDChina - Miền Đất Hứa   Wed 14 Mar 2012, 13:01



IMDb Ratings: 6.4/10 from 2,002 users

"Neverland 2011 gồm 2 tập phim nói về thời thơ ấu của cậu bé biết bay Peter Pan mồ côi , lang thang khắp những ngõ ngách trong thành phố , nhân vật được nhà văn người Scotland J.M.Barrie tạo ra gần một thế kỉ trước, cùng với một thế giới đầy biến ảo, mơ mộng, thời đại của những tên cướp biển vùng Carribean đầy sóng gió , và không thể thiếu những nhân vật quen thuộc như thuyền trưởng James Hook , nàng tiên Tinker Bell."

Code:
 Format : Matroska
      File size : 3.29 GiB
      Duration : 1h 25mn
      Overall bit rate : 5 519 Kbps
      Encoded date : UTC 2012-02-29 21:57:47
      Writing application : mkvmerge v5.0.1 ('Es ist Sommer') built on Oct  9 2011 11:55:43
      Writing library : libebml v1.2.2 + libmatroska v1.3.0
  Video #1
      ID : 1
      Format : AVC
      Format/Info : Advanced Video Codec
      Format profile : High@L4.1
      Format settings, CABAC : Yes
      Format settings, ReFrames : 9 frames
      Muxing mode : Container profile=Unknown@4.1
      Codec ID : V_MPEG4/ISO/AVC
      Duration : 1h 25mn
      Bit rate : 3 644 Kbps
      Width : 1 280 pixels
      Height : 720 pixels
      Display aspect ratio : 16:9
      Frame rate : 23.976 fps
      Resolution : 24 bits
      Colorimetry : 4:2:0
      Scan type : Progressive
      Bits/(Pixel*Frame) : 0.165
      Stream size : 2.17 GiB (66%)
      Writing library : x264 core 120 r2164 da19765
udio #2
      ID : 2
      Format : DTS
      Format/Info : Digital Theater Systems
      Codec ID : A_DTS
      Duration : 1h 25mn
      Bit rate mode : Constant
      Bit rate : 1 510 Kbps
      Channel(s) : 6 channels
      Channel positions : Front: L C R, Surround: L R, LFE
      Sampling rate : 48.0 KHz
      Resolution : 24 bits
      Video delay : 2ms
      Stream size : 923 MiB (27%)
  Audio #3
      ID : 3
      Format : DTS
      Format/Info : Digital Theater Systems
      Codec ID : A_DTS
      Duration : 1h 25mn
      Bit rate mode : Constant
      Bit rate : 256 Kbps
      Channel(s) : 2 channels
      Channel positions : L R
      Sampling rate : 48.0 KHz
      Resolution : 24 bits
      Video delay : 2ms
      Stream size : 156 MiB (5%)
      Title : commentary
  Text #4
      ID : 4
      Format : S_HDMV/PGS
      Codec ID : S_HDMV/PGS

Downloads:
Trích dẫn :
http://www.fshare.vn/folder/T3ZX7WX9BT









Về Đầu Trang Go down
  http://www.hoangthienit.net
 

[Phiêu lưu | Hành động | 1 Link] Neverland.2011.720p.BluRay.x264.DTS-HDChina - Miền Đất Hứa

Xem chủ đề cũ hơn Xem chủ đề mới hơn Về Đầu Trang 

 Similar topics

+
Trang 1 trong tổng số 1 trang

Permissions in this forum:Bạn không có quyền trả lời bài viết
Hoàng Thiên ™ :: Phim :: Phim HD-
Chuyển đến 


Powered by phpBB2 © phpBB Group
Copyright © 2009 - 2012 , Hoàng Thiên ™ All rights reserved.

Free forum | © phpBB | Free forum support | Liên hệ | Report an abuse | Create a blog