IndexIndex  Trợ giúpTrợ giúp  Tìm kiếmTìm kiếm  Thành viênThành viên  Đăng kýĐăng ký  Đăng NhậpĐăng Nhập  
IDM 6.12 Build 23 Final
Windows 8 RTM MSDN/Technet
HT CPL Bonus Pack! 12.4.4
OneKey Ghost
Rambo Quadrilogy (1982 - 2008)
Batman Collection (1989-2008)
Tây Du Ký I + II

Share | 
 

 [Fshare] [Hài - 1link] American Pie Collection (1999 - 2012) 720p HDTV x264-CtrlHD-EbP-HDL-Wiki

Xem chủ đề cũ hơn Xem chủ đề mới hơn Go down 
Tác giảThông điệp
thien8x
Quản Trị Viên
Quản Trị Viên


Tên Thật : Hoàng Thiên
Giới tính : Nam
Capricorn Snake
Tổng số bài gửi : 1121
Điểm : 290406
Join date : 08/11/2009
Age : 26
Đến từ : Hà Nam

Bài gửiTiêu đề: [Fshare] [Hài - 1link] American Pie Collection (1999 - 2012) 720p HDTV x264-CtrlHD-EbP-HDL-Wiki   Wed 18 Jul 2012, 21:51

American.Pie.1.UNRATED.1999.720p.BluRay.DTS.x264-CtrlHD



Code:

American.Pie.1.UNRATED.1999.720p.BluRay.DTS.x264-CtrlHD
Plot
Four teenage boys enter a pact to lose their virginity by prom night.

General Information
RUNTIME.........: 1h:35m:36s
SIZE............: 1xDVD5
VIDEO CODEC.....: x264, 2pass
FRAMERATE.......: 23.976 fps
BITRATE.........: Variable ~ 5000 Kbps
RESOLUTION......: 1280x720
AUDIO 1.........: English DTS Core 5.1 @ 1536 Kbps
SUBTITLES.......: couldn't find any in synch, pls some1 upload them :)
SOURCE..........: Blu-ray (thx LordArgon)
IMDB RATING.....: 6.8/10 (83,195 votes)
IMDB LINK.......: http://www.imdb.com/title/tt0163651/

Post Information
ENCODER.........: rodis11
RELEASE DATE....: 13/09/2008

American.Pie.2.2001.720p.DTheater.DD5.1.x264-EbP



Code:
release info
RELEASE NAME..: American.Pie.2.2001.720p.DTheater.DD5.1.x264-EbP
RELEASE DATE..: 30/07/2010                                           
RELEASE SIZE..: 5.46 GB                                             
RUNTIME.......: 1:45:21
VIDEO CODEC...: x264, 2pass, L4.1                                   
FRAMERATE.....: 23.976 fps                                           
BITRATE.......: 6851 Kbps                                   
RESOLUTION....: 1280x694
AUDIO 1.......: Eng AC3 5.1 @ 576 Kbps
SUBTITLES.....: Eng (.srt)
CHAPTER.......: NO
SOURCE........: D-Theater 1080i Mpeg2 (Thanks to poster@Usenet)


American.Pie.3.The.Wedding.2003.720p.HDTV.x264-PurEvil




Code:
General
Complete name                    : American.Pie.3.The.Wedding.2003.720p.HDTV.x264-PurEvil.mkv
Format                          : Matroska
File size                        : 3.61 GiB
Duration                        : 1h 29mn
Overall bit rate                : 5 777 Kbps
Movie name                      : American Wedding 1080i HDTV DD2 track_3401
Encoded date                    : UTC 2011-07-18 11:46:10
Writing application              : mkvmerge v4.9.1 ('Ich will') built on Jul 11 2011 23:53:15
Writing library                  : libebml v1.2.1 + libmatroska v1.1.1

Video
ID                              : 1
Format                          : AVC
Format/Info                      : Advanced Video Codec
Format profile                  : High@L4.1
Format settings, CABAC          : Yes
Format settings, ReFrames        : 4 frames
Muxing mode                      : Header stripping
Codec ID                        : V_MPEG4/ISO/AVC
Duration                        : 1h 29mn
Bit rate                        : 5 521 Kbps
Width                            : 1 280 pixels
Height                          : 720 pixels
Display aspect ratio            : 16:9
Frame rate                      : 25.000 fps
Color space                      : YUV
Chroma subsampling              : 4:2:0
Bit depth                        : 8 bits
Bits/(Pixel*Frame)              : 0.240
Stream size                      : 3.38 GiB (94%)
Writing library                  : x264 core 116 r2019 9cc407d
Language                        : English

Audio
ID                              : 2
Format                          : AC-3
Format/Info                      : Audio Coding 3
Mode extension                  : CM (complete main)
Muxing mode                      : Header stripping
Codec ID                        : A_AC3
Duration                        : 1h 29mn
Bit rate mode                    : Constant
Bit rate                        : 256 Kbps
Channel(s)                      : 2 channels
Channel positions                : Front: L R
Sampling rate                    : 48.0 KHz
Bit depth                        : 16 bits
Compression mode                : Lossy
Stream size                      : 164 MiB (4%)
Language                        : English
http://www.imdb.com/title/tt0328828/



American.Pie.4.Presents.Band.Camp.2005.HDTV.720p.x264.DL.AC3-5.1-HDL



Code:
Code:
RELEASENAME..... American.Pie.4.Presents.Band.Camp.2005.HDTV.720p.x264.DL.AC3-5.1-HDL.mkv

SOURCE.......... american pie presents band camp 1080p h264-premierehd; 9.9 GB

RESOLUTiON...... 1280x720

RUNTiME......... 01h:26m:39s

FRAMERATE....... 25fps

CODEC........... x264 @ 6390 kbps

LANGUAGE........ English+German DD 5.1 384 kbps (from R2 DVD); both muxed (each 240MB => no complaining)

SUBTiTLES....... Ger+Eng from DVD (rared); delay: 4500ms

SiZE............ 4.33 GB; 1 * DVD5

ENCODER......... hdlover

iMDB.............http://www.imdb.com/title/tt0436058/


American.Pie.5.Presents.The.Naked.Mile.2006.HDTV.720p.x264-HDL



Code:

RELEASE.NAME.... American.Pie.5.Presents.The.Naked.Mile.2006.HDTV.720p.x264-HDL.mkv

SOURCE.......... H.264 1080p; 13 mbps

RESOLUTiON...... 1280x720

RUNTiME......... 01h:37m:33s

FRAMERATE....... 25 fps

CODEC........... x264 @ 5635 kbps

LANGUAGE........ English AC3 5.1 (R2 DVD)

SUBTiTLES....... eng (ass)

SiZE............ 4.1 GB + additional audio track = DVD5

ENCODER......... hdlover

iMDB............ http://www.imdb.com/title/tt0808146/

American.Pie.6.Presents.Beta.House.2007.720p.HDTV.DD5.1.x264.REPACK-REPTiLE



Code:
American.Pie.6.Presents.Beta.House.2007.720p.HDTV.DD5.1.x264.REPACK-REPTiLE

IMDB: http://www.imdb.com/title/tt0974959/ - 5.3/10 (10,212 votes)
Runtime: 1:23:30
Genre: Comedy

Technical Information:

Size...........: 4.37GB DVD5 (62.0% of the source size)
Codec..........: 2Pass L4.1 x264 (rev 1139)
Resolution.....: 1280x720
Bitrate........: 7110kbps
Framerate......: 25fps
Audio..........: AC3 5.1 English
Subtitles......: Vietnamese

American.Pie.7.Presents.The.Book.of.Love.2009.720p.BluRay.x264-MELiTE



Code:
File size                        : 4.37 GiB
Duration                        : 1h 33mn
Overall bit rate                : 6 692 Kbps
Encoded date                    : UTC 2012-04-17 02:14:46
Writing application              : mkvmerge v2.2.0 ('Turn It On Again') built on Mar  4 2008 12:58:26
Writing library                  : libebml v0.7.7 + libmatroska v0.8.1

American.Reunion.UNRATED.2012.720p.BluRay.x264.DTS-WiKi



Code:
American.Reunion.UNRATED.2012.720p.BluRay.x264.DTS-WiKi

Plot
TAGLINE...................: American.Reunion
GENRE.....................: Comedy
IMDb RATING...............: 7.3/10 from 35,030 users
IMDb LINK.................: http://www.imdb.com/title/tt1605630/

.Release.Info
ENCODER...................: Island
RELEASE DATE..............: 2012-06-29
RELEASE SIZE..............: 6.55 GiB
SOURCE....................: BluRay.1080p.AVC.DTS-HDMA5.1-TTG

.Media.Info
RUNTIME...................: 1h:53m:51s
VIDEO CODEC...............: x264: 2pass-L4.1 @ 6739 Kbps
RESOLUTION................: 1280x692
DISPLAY ASPECT RATIO......: 1.85:1
FRAME RATE................: 23.976 fps
AUDiO CODEC...............: Engilsh DTS @ 1510 Kbps

.x264.Info
x264 [info]: profile High, level 4.1
x264 [info]: frame I:1623  Avg QP:16.68  size:186265
x264 [info]: frame P:32802 Avg QP:19.24  size: 60858
x264 [info]: frame B:129367 Avg QP:21.70  size: 26686
x264 [info]: consecutive B-frames:  1.8%  1.9%  6.0% 11.8% 16.8% 52.3%  6.6%  1.2%  1.7%

Downloads :

Trích dẫn :
American Pie Collection (1999 - 2012)









Về Đầu Trang Go down
  http://www.hoangthienit.net
 

[Fshare] [Hài - 1link] American Pie Collection (1999 - 2012) 720p HDTV x264-CtrlHD-EbP-HDL-Wiki

Xem chủ đề cũ hơn Xem chủ đề mới hơn Về Đầu Trang 

 Similar topics

+
Trang 1 trong tổng số 1 trang

Permissions in this forum:Bạn không có quyền trả lời bài viết
Hoàng Thiên ™ :: Phim :: Phim HD-
Chuyển đến 


Powered by phpBB2 © phpBB Group
Copyright © 2009 - 2012 , Hoàng Thiên ™ All rights reserved.

Free forum | © phpBB | Free forum support | Liên hệ | Report an abuse | Create a blog