IndexIndex  Trợ giúpTrợ giúp  Tìm kiếmTìm kiếm  Thành viênThành viên  Đăng kýĐăng ký  Đăng NhậpĐăng Nhập  
IDM 6.12 Build 23 Final
Windows 8 RTM MSDN/Technet
HT CPL Bonus Pack! 12.4.4
OneKey Ghost
Rambo Quadrilogy (1982 - 2008)
Batman Collection (1989-2008)
Tây Du Ký I + II

Share | 
 

 [Fshare] [MV] Quang Hà Collection Karaoke 720p Dual Audio

Xem chủ đề cũ hơn Xem chủ đề mới hơn Go down 
Tác giảThông điệp
thien8x
Quản Trị Viên
Quản Trị Viên


Tên Thật : Hoàng Thiên
Giới tính : Nam
Capricorn Snake
Tổng số bài gửi : 1121
Điểm : 290406
Join date : 08/11/2009
Age : 26
Đến từ : Hà Nam

Bài gửiTiêu đề: [Fshare] [MV] Quang Hà Collection Karaoke 720p Dual Audio   Fri 03 Aug 2012, 18:42




Code:
Complete name                            : Nhieu Luc.mkv
Format                                  : Matroska
Format version                          : Version 2
File size                                : 331 MiB
Duration                                : 4mn 46s
Overall bit rate mode                    : Variable
Overall bit rate                        : 9 671 Kbps
Encoded date                            : UTC 2012-07-27 06:46:46
Writing application                      : mkvmerge v3.4.0 ('Rapunzel') built on May 15 2010 09:38:20
Writing library                          : libebml v0.8.0 + libmatroska v0.9.0

Video
ID                                      : 1
Format                                  : AVC
Format/Info                              : Advanced Video Codec
Format profile                          : High@L4.2
Format settings, CABAC                  : Yes
Format settings, ReFrames                : 3 frames
Codec ID                                : V_MPEG4/ISO/AVC
Duration                                : 4mn 46s
Bit rate                                : 9 287 Kbps
Width                                    : 1 920 pixels
Height                                  : 1 080 pixels
Display aspect ratio                    : 16:9
Frame rate                              : 25.000 fps
Standard                                : PAL
Color space                              : YUV
Chroma subsampling                      : 4:2:0
Bit depth                                : 8 bits
Scan type                                : Progressive
Bits/(Pixel*Frame)                      : 0.179
Stream size                              : 318 MiB (96%)
Language                                : English
Default                                  : Yes
Forced                                  : No
Color primaries                          : BT.709-5, BT.1361, IEC 61966-2-4, SMPTE RP177
Transfer characteristics                : BT.709-5, BT.1361
Matrix coefficients                      : BT.709-5, BT.1361, IEC 61966-2-4 709, SMPTE RP177

Audio
ID                                      : 2
Format                                  : MPEG Audio
Format version                          : Version 1
Format profile                          : Layer 3
Mode                                    : Joint stereo
Mode extension                          : MS Stereo
Codec ID                                : A_MPEG/L3
Codec ID/Hint                            : MP3
Duration                                : 4mn 40s
Bit rate mode                            : Variable
Bit rate                                : 192 Kbps
Channel(s)                              : 2 channels
Sampling rate                            : 44.1 KHz
Compression mode                        : Lossy
Stream size                              : 6.42 MiB (2%)
Default                                  : Yes
Forced                                  : No

Downloads :
Trích dẫn :
Quang Ha Collection Karaoke









Về Đầu Trang Go down
  http://www.hoangthienit.net
 

[Fshare] [MV] Quang Hà Collection Karaoke 720p Dual Audio

Xem chủ đề cũ hơn Xem chủ đề mới hơn Về Đầu Trang 

 Similar topics

+
Trang 1 trong tổng số 1 trang

Permissions in this forum:Bạn không có quyền trả lời bài viết
Hoàng Thiên ™ :: Music :: V-POP-
Chuyển đến 


Powered by phpBB2 © phpBB Group
Copyright © 2009 - 2012 , Hoàng Thiên ™ All rights reserved.

Free forum | © phpBB | Free forum support | Liên hệ | Report an abuse | Create a blog